<?xml version="1.0" standalone="no"?>
<!DOCTYPE svg PUBLIC "-//W3C//DTD SVG 1.1//EN" "http://www.w3.org/Graphics/SVG/1.1/DTD/svg11.dtd">
<svg xmlns="http://www.w3.org/2000/svg">
<metadata>Generated by Fontastic.me</metadata>
<defs>
<font id="prdctfltr" horiz-adv-x="512">
<font-face font-family="prdctfltr" units-per-em="512" ascent="480" descent="-32"/>
<missing-glyph horiz-adv-x="512" />

<glyph glyph-name="bars" unicode="&#61441;" d="M64 416l0-64 384 0 0 64z m0-192l384 0 0 64-384 0z m0-128l384 0 0 64-384 0z"/>
<glyph glyph-name="delete" unicode="&#61442;" d="M367 176c6-6 9-13 9-22 0-8-3-16-9-22-6-5-13-8-22-8-8 0-16 3-22 8 0 0-68 78-68 78 0 0-67-78-67-78-6-5-14-8-22-8-9 0-16 3-22 8-6 6-8 14-8 22 0 9 2 16 8 22 0 0 71 80 71 80 0 0-71 81-71 81-6 6-8 13-8 22 0 8 2 16 8 22 6 5 13 8 22 8 8 0 16-3 22-8 0 0 67-78 67-78 0 0 68 78 68 78 6 5 14 8 22 8 9 0 16-3 22-8 6-6 9-14 9-22 0-9-3-16-9-22 0 0-71-81-71-81 0 0 71-80 71-80"/>
<glyph glyph-name="sale" unicode="&#61443;" d="M226 227l18 11-24 20z m227 29c0 5-2 9-5 11l0 0-48 28 28 47 0 1c1 3 1 8-1 12-2 4-6 6-10 7l0 0-56 0 0 55 0 0c0 4-3 8-6 10-4 2-9 2-13 1l0 0-48-28-27 46 0 0c-3 4-7 6-11 6-5 0-9-2-11-6l-1 0-27-47-47 27 0 0c-4 2-8 2-12-1-4-2-7-6-7-10l0 0 0-55-55 0 0 0c-4 0-8-2-10-6-2-4-2-9-1-13l0 0 27-46-48-28 0 0c-3-3-5-7-5-11 0-5 2-9 5-11l0 0 48-28-28-48 0 0c-1-3-1-8 1-12 2-4 6-6 11-7l0 0 55 0 0-55 0 0c0-4 3-8 6-10 4-2 9-2 13-1l0 0 48 28 27-46 0 0c3-4 7-6 11-6 5 0 9 2 11 6l1 0 27 47 47-27 0 0c4-2 8-2 12 1 4 2 7 6 7 10l0 0 0 55 55 0 0 0c4 0 8 2 10 6 2 4 2 9 1 13l0 0-27 46 48 28 0 0c3 3 5 7 5 11z m-261-78c-11-6-22-7-30-5l1 14c7-2 15-2 23 3 7 4 9 9 7 12-6 10-36-16-49 6-6 10-2 23 12 31 10 5 19 7 28 5l-2-14c-7 2-15 0-21-3-5-3-7-7-4-11 5-9 35 17 48-5 6-11 3-24-13-33z m72 43l-10 8-25-15 2-12-14-8-12 72 16 9 57-46z m19 11l-34 59 12 7 28-48 25 15 6-11z m46 27l-34 59 42 24 6-11-29-17 7-13 29 17 6-11-29-17 8-13 29 17 7-11z"/>
<glyph glyph-name="down" unicode="&#61444;" d="M256 214l174 167c4 4 12 4 16 0l31-30c4-4 4-12 0-16l-213-204c-2-2-5-3-8-3-3 0-6 1-8 3l-213 204c-4 4-4 12 0 16l31 30c4 4 12 4 16 0z"/>
<glyph glyph-name="up" unicode="&#61445;" d="M256 298l-174-167c-4-4-12-4-16 0l-31 30c-4 4-4 12 0 16l213 204c2 2 5 3 8 3 3 0 6-1 8-3l213-204c4-4 4-12 0-16l-31-30c-4-4-12-4-16 0z"/>
<glyph glyph-name="filter" unicode="&#61446;" d="M218 460c-44-3-80-12-105-24-16-7-24-14-27-23-4-13 12-50 43-96 22-34 49-69 73-98 7-7 14-15 16-18l5-5 0-140 2-2c1-1 3-2 5-2 2 0 5 2 31 29l29 29 0 86 5 5c2 3 9 11 16 18 24 29 51 64 73 98 31 46 47 83 43 96-3 9-11 16-27 23-25 13-61 21-107 24-14 1-61 1-75 0z m72-16c35-3 64-9 80-17 7-3 10-6 12-10 11-26-111-43-199-28-43 7-62 21-48 33 10 10 45 19 86 22 14 1 55 1 69 0z"/>
<glyph glyph-name="plus" unicode="&#61447;" d="M256 464c115 0 208-93 208-208 0-115-93-208-208-208-115 0-208 93-208 208 0 115 93 208 208 208z m0-399c105 0 191 86 191 191 0 105-86 191-191 191-105 0-191-86-191-191 0-105 86-191 191-191z m8 319l0-120 120 0 0-17-120 0 0-119-17 0 0 119-119 0 0 17 119 0 0 120z"/>
<glyph glyph-name="minus" unicode="&#61448;" d="M256 464c115 0 208-93 208-208 0-115-93-208-208-208-115 0-208 93-208 208 0 115 93 208 208 208z m0-399c105 0 191 86 191 191 0 105-86 191-191 191-105 0-191-86-191-191 0-105 86-191 191-191z m-128 182l0 17 256 0 0-17z"/>
<glyph glyph-name="eye" unicode="&#61449;" d="M256 384c99 0 172-70 224-129-51-50-124-127-224-127-100 0-157 60-224 128 78 79 142 128 224 128z m0-219c49 0 90 41 90 91 0 50-41 91-90 91-49 0-90-41-90-91 0-50 41-91 90-91z m0 123c0-18 14-32 32-32 8 0 14 3 20 7l0-7c0-29-23-53-52-53-29 0-52 24-52 53 0 29 23 53 52 53l8 0c-5-6-8-13-8-21z"/>
<glyph glyph-name="eye-disabled" unicode="&#61456;" d="M376 354c41-27 76-66 104-100-51-54-124-135-224-135-36 0-65 8-92 22l-77-77-23 23 71 71c-36 25-68 61-103 98 78 85 142 137 224 137 34 0 64-9 92-23l77 78 23-23z m-210-98c0-19 6-36 16-51l27 27c-4 7-5 15-5 24 0 29 23 53 52 53l8 0c-5-6-8-13-8-21 0-3 0-5 1-8l51 50c-15 11-33 17-52 17-49 0-90-41-90-91z m90-91c49 0 90 41 90 91 0 19-6 37-16 52l-50-51c3-1 5-1 8-1 8 0 14 3 20 7l0-7c0-29-23-53-52-53-9 0-17 2-24 6l-28-27c15-11 33-17 52-17z"/>
<glyph glyph-name="move" unicode="&#61457;" d="M480 256l-96-96 0 76-109 0 1-108 76 0-96-96-96 96 76 0 0 108-108 0 0-76-96 96 96 96 0-76 108 0 0 108-76 0 96 96 96-96-76 0 0-108 108 0 0 76z"/>
<glyph glyph-name="instock" unicode="&#61458;" d="M199 97c0-16-14-30-30-30-17 0-30 14-30 30 0 17 13 30 30 30 16 0 30-13 30-30z m212 0c0-16-14-30-31-30-16 0-30 14-30 30 0 17 14 30 30 30 17 0 31-13 31-30z m-35 132c7 0 13 4 16 10l0 0 75 130 0 0c1 2 2 5 2 7 0 10-8 18-18 18l-274 0 0 33c0 10-8 18-18 18l-97 0 0 0c0 0-1 0-1 0-9 0-16-7-17-16l-1 0 0-17c0-10 8-18 18-18 0 0 1 0 1 0l0 0 64 0 0-224 0 0c0-10 8-17 17-17 0 0 0 0 0 0l304 0 0 0c8 1 15 7 16 15l0 0 0 2c0 0 0 1 0 1 0 0 0 0 0 0l0 15c0 0 0 0 0 0 0 9-7 17-16 18l0 0-270 0 0 25 199 0z"/>
<glyph glyph-name="clear" unicode="&#61459;" d="M256 475c-121 0-219-98-219-219 0-121 98-219 219-219 121 0 219 98 219 219 0 121-98 219-219 219z m0-92c35 0 67-14 90-38l37 27 0-119-113 38 33 24c-13 10-29 17-47 17-42 0-76-34-76-76 0-42 34-76 76-76 28 0 52 16 65 38l45-25c-22-38-63-64-110-64-70 0-127 57-127 127 0 70 57 127 127 127z"/>
<glyph glyph-name="check" unicode="&#61460;" d="M384 416l-192-192-64 64-64-64 128-128 256 256z"/>
<glyph glyph-name="minus-1" unicode="&#61461;" d="M417 288c17 0 31-14 31-32 0-18-14-32-31-32l-322 0c-17 0-31 14-31 32 0 18 14 32 31 32z"/>
<glyph glyph-name="plus-1" unicode="&#61462;" d="M417 288c17 0 31-14 31-32 0-18-14-32-31-32l-129 0 0-129c0-17-14-31-32-31-18 0-32 14-32 31l0 129-129 0c-17 0-31 14-31 32 0 18 14 32 31 32l129 0 0 129c0 17 14 31 32 31 18 0 32-14 32-31l0-129z"/>
<glyph glyph-name="minus-2" unicode="&#61463;" d="M256 480c124 0 224-100 224-224 0-124-100-224-224-224-124 0-224 100-224 224 0 124 100 224 224 224z m128-240l0 32-256 0 0-32z"/>
<glyph glyph-name="plus-2" unicode="&#61464;" d="M256 480c124 0 224-100 224-224 0-124-100-224-224-224-124 0-224 100-224 224 0 124 100 224 224 224z m128-240l0 32-112 0 0 112-32 0 0-112-112 0 0-32 112 0 0-112 32 0 0 112z"/>
<glyph glyph-name="search" unicode="&#61465;" d="M344 214l-4-7 108-109-34-34-108 109-7-5c-24-15-53-25-83-25-84 0-152 69-152 153 0 84 68 152 152 152 84 0 152-68 152-152 0-30-9-58-24-82z m-43 167c-23 23-53 35-85 35-32 0-62-12-85-35-23-23-35-53-35-85 0-32 12-62 35-85 23-23 53-35 85-35 32 0 62 12 85 35 23 23 36 53 36 85 0 32-13 62-36 85z"/>
<glyph glyph-name="style" unicode="&#61472;" d="M290 476c59 0 108-8 146-25 38-17 56-35 53-54-2-13-10-65-24-157-15-92-22-140-23-144-1-6-7-13-19-22-12-9-30-18-55-26-24-8-50-12-78-12-28 0-55 4-79 12-24 8-42 17-54 26-12 9-18 16-19 22 0 1-1 6-2 16 28-2 56 4 83 18 28 14 52 33 72 59 9 0 17 4 24 11 7 7 10 15 10 25 0 10-3 18-10 25-7 8-15 11-25 11-10 0-18-3-26-11-7-7-10-15-10-25 0-7 1-13 5-18-17-20-36-35-59-46-23-10-45-15-67-14-35 4-62 14-81 30-18 16-28 34-30 55-2 42 24 73 80 95-6 32-10 55-11 70-3 19 15 37 53 54 38 17 87 25 146 25m-232-240c1-11 8-21 19-31 11-9 27-16 47-20 0 0-17 105-17 105-34-15-50-33-49-54m232 108c28 0 54 3 80 9 26 6 45 13 58 20 13 7 19 13 19 18 0 5-6 11-19 18-13 7-32 14-58 20-25 6-52 9-80 9-28 0-55-3-80-9-26-6-45-13-58-20-13-7-19-13-19-18 0-5 6-11 19-18 13-7 32-14 58-20 25-6 52-9 80-9"/>
<glyph glyph-name="terms" unicode="&#61473;" d="M411 256c0-24 15-43 37-56-4-13-10-26-16-38-25 6-45-3-62-20-17-17-22-37-16-62-12-6-25-12-38-16-13 22-36 37-60 37-24 0-47-15-60-37-13 4-27 10-39 16 6 25 2 45-15 62-17 17-37 21-62 15-6 12-12 26-16 39 22 13 37 36 37 60 0 24-15 43-37 56 4 13 9 26 16 38 25-6 45 3 62 20 17 17 21 37 15 62 12 6 26 12 39 16 13-22 36-37 60-37 24 0 47 15 60 37 13-4 27-10 39-16-6-25-2-45 15-62 17-17 37-26 62-20 6-12 12-25 16-38-22-13-37-32-37-56z m-155-98c54 0 98 44 98 98 0 54-44 98-98 98-54 0-98-44-98-98 0-54 44-98 98-98z"/>
<glyph glyph-name="overrides" unicode="&#61474;" d="M370 331c-52 0-83-43-120-92-41-55-88-120-171-120l-47 0 0 63 47 0c52 0 84 47 121 96 41 55 87 116 170 116l29 0 0 54 81-81-81-84 0 48z m-217-37c-21 21-42 35-74 36-34 1-47 0-47 0l0 63 47 0c48 0 83-20 113-48-10-12-19-24-28-36-4-5-7-10-11-15z m246-112l0 47 81-84-81-81 0 54-29 0c-50 0-87 23-117 53 12 14 22 28 32 41 2 3 5 6 7 9 22-24 46-39 78-39z"/>
<glyph glyph-name="analyticsrefresh" unicode="&#61475;" d="M33 256c0 5-1 11-1 16 0 115 93 208 208 208 5 0 11-1 16-1l0-223z m77-146c-26 32-42 71-45 114l223 0 0 223c43-3 82-19 114-45 47-38 78-96 78-162 0-115-93-208-208-208-66 0-124 31-162 78z"/>
<glyph glyph-name="update" unicode="&#61476;" d="M416 160l-104 112 74 0c-7 65-64 112-130 112-71 0-128-57-128-128 0-71 57-128 128-128 28 0 53 8 75 24l6 5 43-46-7-6c-34-27-74-41-117-41-91 0-167 64-187 149l0 0c0 1-1 2-1 3 0 0 0 1 0 1 0 1 0 2 0 2-1 1-1 2-1 3 0 0 0 1 0 1 0 1-1 2-1 4l0 0c-1 6-1 12-2 19l0 1c0 1 0 3 0 4 0 2 0 3 0 5 0 2 0 3 0 5 0 1 0 3 0 4l0 1c1 6 1 13 2 19l0 0c0 1 1 3 1 4 0 0 0 0 0 1 0 1 0 2 1 2 0 1 0 2 0 3 0 0 0 0 0 1 0 1 1 2 1 3l0 0c20 85 96 149 187 149l0 0c11 0 21-1 31-3 1 0 1 0 2 0 0 0 1 0 2 0 57-11 105-47 133-96 13-23 21-49 23-77l65 0z"/>
</font>
</defs>
</svg>
